Verified torrent After Ends 3 2018 720p WEB-DL X264 With SampleLLG


    Seeders : 144      Leechers : 203

Hash :2F5793070E96829E49918AA773EC9DD8D555EFA5
Added :Last Month in Movies
Size :1.72 GB
Stream :Watch Movie Online @ Movie4u
Share :


After Ends 3 2018 720p WEB-DL X264 With SampleLLG
Use a VPN to make yourself hidden while downloading torrents.







Before you download or do Anything online: PLEASE Protect your Online Privacy.
Your IP Address is 91.243.92.33.   And Location is United States,
Your Internet Service Provider and Government can track your torrent Activity!  Hide your IP ADDRESS with a VPN!
We Strongly Recommend Using Best Cheapest VPN to Anonymize your Torrenting.

Note :

Please Update (Trackers Info) Before Start Torrents Downloading to See Updated Seeders And Leechers for Batter Download Speed.

Trackers List

Tracker NameLast CheckStatusSeedersLeechers
udp://tracker.opentrackr.org:1337/announceLast Monthsuccess144203
udp://tracker.pirateparty.gr:6969/announceLast Monthsuccess112129
udp://tracker.coppersurfer.tk:80/announceLast Monthsuccess112129
udp://9.rarbg.to:2730/announceLast Monthsuccess2221
udp://9.rarbg.to:2710/announceLast Monthsuccess2221
udp://tracker.internetwarriors.net:1337/announceLast Monthsuccess1819
udp://tracker.tiny-vps.com:6969/announceLast Monthsuccess1621
udp://bt.xxx-tracker.com:2710/announceLast Monthsuccess1520
udp://open.stealth.si:80/announceLast Monthsuccess1521
udp://tracker.port443.xyz:6969/announceLast Monthsuccess1519
udp://tracker.vanitycore.co:6969/announceLast Monthsuccess109
http://tracker3.itzmx.com:8080/announceLast Monthsuccess1023
udp://ipv4.tracker.harry.lu:80/announceLast Monthsuccess816
udp://tracker.cyberia.is:6969/announceLast Monthsuccess01
udp://exodus.desync.com:6969/announceLast Monthsuccess02
http://share.camoe.cn:8080/announceLast Monthsuccess00
udp://tracker.justseed.it:1337/announceLast Monthsuccess00
udp://tracker.torrent.eu.org:451/announceLast Monthsuccess01
udp://tracker.torrent.eu.org:451Last Monthsuccess01



Torrent File Content (2 files)


18+.After Ends 3.2018.720p.WEB-DL.X264.With.SampleLLG
     SAMPLE.ts -
22.48 MB

     18+.After Ends 3.2018.720p.WEB-DL.X264.With.SampleLLG.mp4 -
1.7 GB



Description



Quote:



******************************Thumbnail:**********************



******************************Screenshots:********************

Screenshot 1

Screenshot 2

Screenshot 3

Screenshot 4

Screenshot 5

Screenshot 6

Screenshot 7

Screenshot 8

Screenshot 9

Screenshot 0

******************************************************

18+.After Ends 3.2018.720p.WEB-DL.X264.With.SampleLLG.mp4
Format : MPEG-4
Format profile : Base Media
Codec ID : isom (isom/iso2/avc1/mp41)
File size : 1.70 GiB
Duration : 1 h 26 min
Overall bit rate mode : Variable
Overall bit rate : 2 796 kb/s


Video
ID : 1
Format : AVC
Format/Info : Advanced Video Codec
Format profile : [email protected]
Format settings : CABAC / 1 Ref Frames
Format settings, CABAC : Yes
Format settings, RefFrames : 1 frame
Codec ID : avc1
Codec ID/Info : Advanced Video Coding
Duration : 1 h 26 min
Bit rate mode : Variable
Bit rate : 2 409 kb/s
Maximum bit rate : 7 500 kb/s
Width : 1 280 pixels
Height : 714 pixels
Display aspect ratio : 16:9
Frame rate mode : Constant
Frame rate : 23.976 (23976/1000) FPS
Color space : YUV
Chroma subsampling : 4:2:0
Bit depth : 8 bits
Scan type : Progressive
Bits/(Pixel*Frame) : 0.110
Stream size : 1.46 GiB (86%)
Language : English


Audio
ID : 2
Format : AC-3
Format/Info : Audio Coding 3
Commercial name : Dolby Digital
Codec ID : ac-3
Duration : 1 h 26 min
Bit rate mode : Constant
Bit rate : 384 kb/s
Channel(s) : 6 channels
Channel layout : L R C LFE Ls Rs
Sampling rate : 48.0 kHz
Frame rate : 31.250 FPS (1536 SPF)
Bit depth : 16 bits
Compression mode : Lossy
Stream size : 239 MiB (14%)
Language : English
Service kind : Complete Main
Default : Yes
Alternate group : 1


********************************************************



Related torrents

Torrent NameAddedSizeSeedLeechHealth
2 months ago - in Other750.71 MB00
2 months ago - in Movies1.72 GB00
2 months ago - in Movies750.71 MB69
1 Year+ - in Movies786.31 MB00
2 months ago - in Movies2.57 GB85
2 months ago - in Movies1.53 GB928

Note :

Feel free to post any comments about this torrent, including links to Subtitle, samples, screenshots, or any other relevant information. Please Dont Download anything from Comments, And Links to Streaming Sites like Watch Online After Ends 3 2018 720p WEB-DL X264 With SampleLLG Full Movie, Fmovies, 123Movies, Putlocker, Netflix, etc.

Comments (0 Comments)




Please login or create a FREE account to post comments

Latest Searches